Ронни Колеман видео тренировки «Цена победы»


Содержание:
  • Ронни Коулмен 'Невероятный' русская озвучка


  • log

    x264 [info]: using cpu capabilities: MMX2 SSE2Fast SSSE3 SSE4.2 AVX
    x264 [info]: profile High, level 3.1
    x264 [info]: cabac=1 ref=7 deblock=1:-3:-2 analyse=0x3:0x133 me=umh subme=11 psy=1 fade_compensate=0.00 psy_rd=1.10:0.20 mixed_ref=1 me_range=32 chroma_me=1 trellis=2 8x8dct=1 cqm=0 deadzone=21,11 fast_pskip=0 chroma_qp_offset=-3 threads=8 lookahead_threads=1 sliced_threads=0 nr=0 decimate=0 interlaced=0 bluray_compat=0 constrained_intra=0 fgo=0 bframes=9 b_pyramid=2 b_adapt=2 b_bias=0 direct=3 weightb=1 open_gop=0 weightp=2 keyint=250 keyint_min=25 scenecut=40 intra_refresh=0 rc=2pass mbtree=0 bitrate=3245 ratetol=1.0 qcomp=0.60 qpmin=0 qpmax=69 qpstep=4 cplxblur=20.0 qblur=0.5 ip_ratio=1.40 pb_ratio=1.30 aq=3:1.00
    x264 [info]: frame I:1432 Avg QP:21.52 size: 58566
    x264 [info]: frame P:62635 Avg QP:24.57 size: 27359
    x264 [info]: frame B:288661 Avg QP:26.10 size: 10309
    x264 [info]: consecutive B-frames: 0.5% 0.4% 3.6% 6.0% 7.0% 73.2% 4.6% 1.2% 2.5% 0.3%
    x264 [info]: mb I I16..4: 20.5% 48.5% 31.0%
    x264 [info]: mb P I16..4: 0.9% 12.4% 2.6% P16..4: 30.8% 38.2% 12.4% 2.1% 0.1% skip: 0.4%
    x264 [info]: mb B I16..4: 0.0% 1.1% 0.1% B16..8: 47.9% 20.7% 4.0% direct: 9.5% skip:16.6% L0:40.8% L1:44.7% BI:14.5%
    x264 [info]: 8x8 transform intra:77.4% inter:52.7%
    x264 [info]: direct mvs spatial:99.5% temporal:0.5%
    x264 [info]: coded y,uvDC,uvAC intra: 98.5% 67.7% 22.8% inter: 45.4% 23.6% 2.3%
    x264 [info]: i16 v,h,dc,p: 3% 5% 43% 48%
    x264 [info]: i8 v,h,dc,ddl,ddr,vr,hd,vl,hu: 7% 7% 12% 10% 14% 12% 14% 11% 14%
    x264 [info]: i4 v,h,dc,ddl,ddr,vr,hd,vl,hu: 9% 9% 3% 9% 15% 13% 17% 11% 14%
    x264 [info]: i8c dc,h,v,p: 29% 29% 19% 22%
    x264 [info]: Weighted P-Frames: Y:16.3% UV:11.9%
    x264 [info]: ref P L0: 43.7% 7.0% 20.1% 10.3% 7.9% 5.9% 4.5% 0.4% 0.0%
    x264 [info]: ref B L0: 73.2% 14.6% 6.6% 3.4% 1.5% 0.6%
    x264 [info]: ref B L1: 93.3% 6.7%
    x264 [info]: kb/s:3244.46
    квантеля космические, но с картинкой все впорядке - сравнение прилагается

    MI

    Общее
    Уникальный идентификатор : 187937544071233182726110140604691245804 (0x8D63745241BA4C77A8A807B2BE4FEAEC)
    Полное имя : Cena.Pobedy.2004.DVDRip.x264.ac3.[rutracker.org].mkv
    Формат : Matroska
    Версия формата : Version 4 / Version 2
    Размер файла : 4,67 Гбайт
    Продолжительность : 3 ч. 16 м.
    Общий поток : 3406 Кбит/сек
    Дата кодирования : UTC 2015-02-06 22:29:16
    Программа кодирования : mkvmerge v7.0.0 ('Where We Going') 32bit built on Jun 9 2014 15:08:34
    Библиотека кодирования : libebml v1.3.0 + libmatroska v1.4.1
    Обложка : Yes
    DURATION : 03:15:31.200000000
    NUMBER_OF_FRAMES : 366600
    NUMBER_OF_BYTES : 234624000
    _STATISTICS_WRITING_APP : mkvmerge v7.0.0 ('Where We Going') 32bit built on Jun 9 2014 15:08:34
    _STATISTICS_WRITING_DATE_UTC : 2015-02-06 22:29:16
    _STATISTICS_TAGS : BPS DURATION NUMBER_OF_FRAMES NUMBER_OF_BYTES
    Видео
    Идентификатор : 1
    Формат : AVC
    Формат/Информация : Advanced Video Codec
    Профиль формата : High@L3.1
    Параметр CABAC формата : Да
    Параметр ReFrames формата : 7 кадров
    Идентификатор кодека : V_MPEG4/ISO/AVC
    Продолжительность : 3 ч. 16 м.
    Битрейт : 3245 Кбит/сек
    Ширина : 716 пикселей
    Высота : 480 пикселей
    Соотношение сторон : 4:3
    Режим частоты кадров : Постоянный
    Частота кадров : 29,970 кадров/сек
    Цветовое пространство : YUV
    Субдискретизация насыщенности : 4:2:0
    Битовая глубина : 8 бит
    Тип развёртки : Прогрессивная
    Бит/(Пиксели*Кадры) : 0.315
    Размер потока : 4,35 Гбайт (93%)
    Библиотека кодирования : x264 core 144 r2525kMod 40bb568
    Настройки программы : cabac=1 / ref=7 / deblock=1:-3:-2 / analyse=0x3:0x133 / me=umh / subme=11 / psy=1 / fade_compensate=0.00 / psy_rd=1.10:0.20 / mixed_ref=1 / me_range=32 / chroma_me=1 / trellis=2 / 8x8dct=1 / cqm=0 / deadzone=21,11 / fast_pskip=0 / chroma_qp_offset=-3 / threads=8 / lookahead_threads=1 / sliced_threads=0 / nr=0 / decimate=0 / interlaced=0 / bluray_compat=0 / constrained_intra=0 / fgo=0 / bframes=9 / b_pyramid=2 / b_adapt=2 / b_bias=0 / direct=3 / weightb=1 / open_gop=0 / weightp=2 / keyint=250 / keyint_min=25 / scenecut=40 / intra_refresh=0 / rc=2pass / mbtree=0 / bitrate=3245 / ratetol=1.0 / qcomp=0.60 / qpmin=0 / qpmax=69 / qpstep=4 / cplxblur=20.0 / qblur=0.5 / ip_ratio=1.40 / pb_ratio=1.30 / aq=3:1.00
    Язык : English
    Default : Да
    Forced : Нет
    Коэффициенты матрицы : BT.601
    DURATION : 03:16:09.357000000
    NUMBER_OF_FRAMES : 352728
    NUMBER_OF_BYTES : 4773148772
    _STATISTICS_WRITING_APP : mkvmerge v7.0.0 ('Where We Going') 32bit built on Jun 9 2014 15:08:34
    _STATISTICS_WRITING_DATE_UTC : 2015-02-06 22:29:16
    _STATISTICS_TAGS : BPS DURATION NUMBER_OF_FRAMES NUMBER_OF_BYTES
    Аудио
    Идентификатор : 2
    Формат : AC-3
    Формат/Информация : Audio Coding 3
    Расширение режима : CM (complete main)
    Параметр Endianness формата : Big
    Идентификатор кодека : A_AC3
    Продолжительность : 3 ч. 16 м.
    Вид битрейта : Постоянный
    Битрейт : 160 Кбит/сек
    Каналы : 2 канала
    Расположение каналов : Front: L R
    Частота : 48,0 КГц
    Битовая глубина : 16 бит
    Метод сжатия : С потерями
    Размер потока : 224 Мбайт (5%)
    Заголовок : AVO Сергей Рябов
    Язык : Russian
    Default : Да
    Forced : Нет
    Меню
    00:00:00.000 : en:Chapter 1
    00:00:02.000 : en:Chapter 2
    ....
    03:05:10.533 : en:Chapter 61

    Источник: http://maintracker.org/forum/viewtopic.php?t=4941555

    Ронни Коулмен 'Невероятный' русская озвучка


    Опубликовано: 14.02.2018 | Автор: Емельян

    Рейтинг статьи: 5

    Ещё


    Всего 5 комментариев.


    04.04.2018 boslisel:
    Ronnie Coleman - Цена победы. sergey norkin 1 488 02.06.2013.

    31.03.2018 Антонин:
    Ронни Колеман - Цена Победы / Ronnie Coleman - The Cost Of Redemption. Страна: США Жанр: документальный, биография, бодибилдинг Год выпуска: 2004 Продолжительность: 03:16:09 Перевод: Авторский (одноголосый закадровый.

    23.02.2018 crornurni:
    Ронни Колеман видео «Цена победы». Сколько раз уже смотрели этот фильм? Не счесть! Тренировки, питание, быт восьмикратного «Мистер Олимпия» «Короля Ронни». Ну, что сказать?

    09.02.2018 Лукерья:
    Видео. Фильмы о бодибилдинге. Ronnie Coleman - Цена победы (с переводом).  Когда обман был раскрыт (лицензия офицера полиции истекла в 2003 году), Ронни взяли под стражу. В тот же день Колеман был выпущен под залог, но в случае.

    10.03.2018 Азарий:
    Официальные билеты на Biletix.ru! Авиабилеты «ПОБЕДА» дешевые цены!

    04.04.2018 disdemachom:
    Ронни Коулмен - Цена Победы/Ronnie Coleman - The Cost of Redemption(2003) DVDRip. Обложка: Жанр: Спорт,Бодибилдинг Описание фильма: Видео о Ронни Колемане, Август 2003, приготовление к IFBB Mr. Olympia.